Witaj Gościu! jeżeli widzisz ten dymek to znaczy że nie jesteś zarejestrowany/zalogowany. Kliknij by się zarejestrować. Rejestracja zajmie mniej niż 30 sekund, a dzięki niej zyskasz możliwość pobierania, komentowania oraz dodawania torrentów !



User:      Hasło:     

MENU


Kategorie


FACEBOOK


PROGRAMY


Torrent: Aladyn - Aladdin *1992* [1080p BluRay x264] [Dubbing PL]
Dodał:  viola62
Data: 23-06-2018
Rozmiar: 7.06 GB
Seed: 0
Peer: 0
Kondycja:
Zaloguj się aby pobrać


Kategoria:  Bajki Pl/Eng

Zaakceptował: Nie wymagał akceptacji
Liczba pobrań: 15
Liczba komentarzy: 0
Ostatnia aktualizacja: 2018-07-07 22:45:46

OPIS:



Oryginalny tytuł: Aladdin
Produkcja: USA
Gatunek: Animacja, Dla dzieci, Baśń
Data premiery: 1992-11-11
Reżyseria: John Musker, Ron Clements; Maria Piotrowska (reżyser dubbingu PL)
Scenariusz: Ted Elliott, John Musker, Terry Rossio, Ron Clements, Roger Allers; Elżbieta Łopatniukowa (dialogi w dubbingu PL)
Muzyka: Alan Menken



http://www.filmweb.pl/film/Aladyn-1992-3789
http://www.imdb.com/title/tt0103639/?ref_=nv_sr_2
http://fdb.pl/film/4365-aladyn



Aladyn - sprytny uliczny złodziejaszek i jego psotna małpka Abu wiodą beztroski żywot w Agrabahu. Pewnego dnia Aladyn, ujrzawszy piękną księżniczkę Dżasminę, zakoc*censored*e się w niej bez pamięci, nie zważając na prawo stanowiące, że księżniczka może poślubić tylko kogoś, pochodzącego z królewskiego rodu. Dziwnym zrządzeniem losu Aladyn staje się właścicielem cudownej lampy. Uwalnia z niej spełniającego życzenia i lubiącego dobrą zabawę Dżina, który zamienia go w księcia. Ale zły czarownik Dżafar i jego przemądrzała papuga Iago także pragną posiąść moc lampy. Jeśli Aladyn chce ich pokonać i zdobyć serce pięknej Dżasminy musi najpierw nauczyć się być sobą - a jest to jedyne życzenie, którego Dżin nie może spełnić.



Paweł Tucholski - Aladyn
Krzysztof Tyniec - Dżin
Katarzyna Skrzynecka - Jasmina
Stanisław Brudny - Sułtan




Format                      : Matroska
Format version              : Version 4 / Version 2
File size                   : 7.06 GiB
Duration                    : 1h 30mn
Overall bit rate            : 11.1 Mbps
Movie name                  : Aladdin.1992.PLDUB.1080p.BluRay.x264-BRY
Encoded date                : UTC 2015-10-30 10:19:49
Writing application         : mkvmerge v6.3.0 ('You can't stop me!' built on Jun 28 2013 20:09:41
Writing library             : libebml v1.3.0 + libmatroska v1.4.0
Attachements                : Aladdin.jpg

Video
ID                          : 1
Format                      : AVC
Format/Info                 : Advanced Video Codec
Format profile              : High@L4.1
Format settings, CABAC      : Yes
Format settings, ReFrames   : 4 frames
Codec ID                    : V_MPEG4/ISO/AVC
Duration                    : 1h 30mn
Bit rate                    : 10.5 Mbps
Width                       : 1 920 pixels
Height                      : 1 038 pixels
Display aspect ratio        : 1.85:1
Frame rate mode             : Constant
Frame rate                  : 23.976 fps
Color space                 : YUV
Chroma subsampling          : 4:2:0
Bit depth                   : 8 bits
Scan type                   : Progressive
Bits/(Pixel*Frame)          : 0.220
Stream size                 : 6.51 GiB (92%)
Title                       : HDMaNiAcS
Writing library             : x264 core 129 r2245 bc13772
Encoding settings           : cabac=1 / ref=4 / deblock=1:-1:-1 / analyse=0x3:0x113 / me=tesa / subme=11 / psy=1 / psy_rd=1.00:0.00 / mixed_ref=1 / me_range=24 / chroma_me=1 / trellis=2 / 8x8dct=1 / cqm=0 / deadzone=21,11 / fast_pskip=1 / chroma_qp_offset=-2 / threads=12 / lookahead_threads=2 / sliced_threads=0 / nr=0 / decimate=1 / interlaced=0 / bluray_compat=0 / constrained_intra=0 / bframes=8 / b_pyramid=2 / b_adapt=2 / b_bias=0 / direct=3 / weightb=1 / open_gop=0 / weightp=2 / keyint=240 / keyint_min=23 / scenecut=40 / intra_refresh=0 / rc=2pass / mbtree=0 / bitrate=10500 / ratetol=1.0 / qcomp=0.60 / qpmin=10 / qpmax=69 / qpstep=4 / cplxblur=20.0 / qblur=0.5 / ip_ratio=1.40 / pb_ratio=1.30 / aq=2:0.90
Language                    : English
Default                     : No
Forced                      : No

Audio
ID                          : 2
Format                      : AC-3
Format/Info                 : Audio Coding 3
Mode extension              : CM (complete main)
Format settings, Endianness : Big
Codec ID                    : A_AC3
Duration                    : 1h 30mn
Bit rate mode               : Constant
Bit rate                    : 640 Kbps
Channel(s)                  : 6 channels
Channel positions           : Front: L C R, Side: L R, LFE
Sampling rate               : 48.0 KHz
Compression mode            : Lossy
Stream size                 : 415 MiB (6%)
Title                       : PL
Language                    : Polish
Default                     : No
Forced                      : No



DETALE TORRENTA:[ ]
Podziękowania, Metal
 




Komentarze