Witaj Gościu! jeżeli widzisz ten dymek to znaczy że nie jesteś zarejestrowany/zalogowany. Kliknij by się zarejestrować. Rejestracja zajmie mniej niż 30 sekund, a dzięki niej zyskasz możliwość pobierania, komentowania oraz dodawania torrentów !



User:      Hasło:     

MENU


Kategorie


FACEBOOK


PROGRAMY


Torrent: Dom - Home *2015* [1080p BluRay x264-BRY] [Dubbing PL]
Dodał:  viola62
Data: 23-06-2018
Rozmiar: 5.31 GB
Seed: 0
Peer: 0
Kondycja:
Zaloguj się aby pobrać


Kategoria:  Bajki Pl/Eng

Zaakceptował: Nie wymagał akceptacji
Liczba pobrań: 17
Liczba komentarzy: 0
Ostatnia aktualizacja: 2018-06-23 12:02:55

OPIS:



Oryginalny tytuł: Home
Produkcja: USA
Gatunek: Animacja, Fantasy, Przygodowy
Data premiery: 2015-03-19
Reżyseria: Tim Johnson; Jerzy Dominik (reżyser dubbingu PL)
Scenariusz: Matt Ember, Tom J. Astle; Michał Wojnarowski (dialogi w dubbingu PL)
Muzyka: Lorne Balfe



http://www.filmweb.pl/film/Dom-2015-704166
http://www.imdb.com/title/tt2224026/?ref_=nv_sr_3
http://fdb.pl/film/449308-dom



Ekscentryczny przybysz z kosmosu, który doprowadza wszystkich do szału swym wiecznym optymizmem, musi uciekać przed ścigającymi go przedstawicielami swej własnej rasy i ukrywa się na Ziemi. Tu zaprzyjaźnia się z wyjątkowo upartą kilkunastoletnią dziewczyną i wspólnie z nią musi ocalić naszą planetę przed kosmiczną inwazją.



Przemysław Stippa - Och
Monika Dryl - Tip
Mariusz Czajka - ka*censored*n Smek
Anna Gajewska - Łucja Tucci



Format                      : Matroska
Format version              : Version 4 / Version 2
File size                   : 5.31 GiB
Duration                    : 1h 33mn
Overall bit rate            : 8 102 Kbps
Movie name                  : Home.2015.PLDUB.1080p.BluRay.x264-BRY
Encoded date                : UTC 2015-07-16 13:57:17
Writing application         : mkvmerge v6.3.0 ('You can't stop me!' built on Jun 28 2013 20:09:41
Writing library             : libebml v1.3.0 + libmatroska v1.4.0
Attachements                : Home.jpg

Video
ID                          : 1
Format                      : AVC
Format/Info                 : Advanced Video Codec
Format profile              : High@L4.1
Format settings, CABAC      : Yes
Format settings, ReFrames   : 4 frames
Codec ID                    : V_MPEG4/ISO/AVC
Duration                    : 1h 33mn
Bit rate                    : 7 908 Kbps
Width                       : 1 920 pixels
Height                      : 1 040 pixels
Display aspect ratio        : 1.85:1
Frame rate mode             : Constant
Frame rate                  : 23.976 fps
Color space                 : YUV
Chroma subsampling          : 4:2:0
Bit depth                   : 8 bits
Scan type                   : Progressive
Bits/(Pixel*Frame)          : 0.165
Stream size                 : 5.08 GiB (96%)
Title                       : - t o r r e n t y . o r g -
Writing library             : x264 core 146 r2538 121396c
Encoding settings           : cabac=1 / ref=4 / deblock=1:0:0 / analyse=0x3:0x113 / me=umh / subme=11 / psy=1 / psy_rd=1.00:0.00 / mixed_ref=1 / me_range=32 / chroma_me=1 / trellis=2 / 8x8dct=1 / cqm=0 / deadzone=21,11 / fast_pskip=0 / chroma_qp_offset=-2 / threads=12 / lookahead_threads=2 / sliced_threads=0 / nr=0 / decimate=0 / interlaced=0 / bluray_compat=0 / constrained_intra=0 / bframes=9 / b_pyramid=2 / b_adapt=2 / b_bias=0 / direct=3 / weightb=1 / open_gop=0 / weightp=2 / keyint=240 / keyint_min=23 / scenecut=40 / intra_refresh=0 / rc=2pass / mbtree=0 / bitrate=7908 / ratetol=1.0 / qcomp=0.60 / qpmin=0 / qpmax=69 / qpstep=4 / cplxblur=20.0 / qblur=0.5 / ip_ratio=1.40 / pb_ratio=1.30 / aq=1:0.80
Language                    : English
Default                     : No
Forced                      : No

Audio
ID                          : 2
Format                      : AC-3
Format/Info                 : Audio Coding 3
Mode extension              : CM (complete main)
Format settings, Endianness : Big
Codec ID                    : A_AC3
Duration                    : 1h 33mn
Bit rate mode               : Constant
Bit rate                    : 192 Kbps
Channel(s)                  : 2 channels
Channel positions           : Front: L R
Sampling rate               : 48.0 KHz
Compression mode            : Lossy
Stream size                 : 129 MiB (2%)
Title                       : PL
Language                    : Polish
Default                     : No
Forced                      : No

DETALE TORRENTA:[ ]
Podziękowania,
 




Komentarze